Sobota, 2017-12-16, 05.17.21
Witaj Gość | RSS
*** >>> ZAPRASZAMY DO KORZYSTANIA Z SERWISU, REJESTRACJA I KORZYSTANIE - BEZPŁATNE- A DZIĘKI REJSTRACI ZYSKASZ WIELE MOŻLIWOŚCI <<< ***
klikńyi w baner
i pobierai Gry | Filmy | Muzyka | Programy | XXX | ebooki ...Codziennie najnowszy upload !.Wszystko Za Free
Polecane

Polecane Strony
Menu witryny
Kategorie sekcji
filmy LEKTOR PL [334]
ZAGRANICZNE BEZ LEKTORA [35]
POLSKIE FILMY [24]
SERIALE TV RIP [5]
BAIKI ANIMACIE [25]
Dokumentalne [4]
DVD/HD [17]
3D SBS [3]
Mini-czat
Statystyki

Ogółem online: 1
Gości: 1
Użytkowników: 0
Flag Counter
Block title
Główna » Artykuły » FILMY » BAIKI ANIMACIE

Escape from Planet Earth (2013) CAMx264-AAC


gatunek: Animacja, Komedia, Przygodowy, Sci-Fi
produkcja: Kanada, USA
premiera: 14 lutego 2013 (świat)
reżyseria: Callan Brunker
scenariusz: Cory Edwards, Tony Leech, Bob Barlen, Callan Brunker

Historia rozgrywa się na planecie Baab, na której narodowym bohaterem jest uwielbiany astronauta Scorch Supernova. Kiedy zostaje złapany w pułapkę przez złego Shankera, uwolnić go musi jego cichy i spokojny brat, Gary.

Kod

Video
ID : 1
Format : AVC
Format/Info : Advanced Video Codec
Format settings, ReFrames : 3 frames
Codec ID : avc1
Codec ID/Info : Advanced Video Coding
Duration : 1h 21mn
Bit rate : 1 117 Kbps
Maximum bit rate : 40.0 Mbps
Width : 592 pixels
Height : 284 pixels
Display aspect ratio : 2.085
Frame rate : 23.976 fps
Stream size : 652 MiB (93%)
Writing library : x264 core 130 r2273 b3065e6

Audio
ID : 2
Format : AAC
Format/Info : Advanced Audio Codec
Format profile : LC
Codec ID : 40
Duration : 1h 21mn
Bit rate mode : Variable
Bit rate : 78.4 Kbps
Maximum bit rate : 93.5 Kbps
Channel(s) : 2 channels
Channel positions : Front: L R
Sampling rate : 48.0 KHz
Compression mode : Lossy
Stream size : 45.8 MiB (7%)
Language : English  


Download Link's // No Pass

Dostępne tylko dla użytkowników


Mój upload || My Upload
Bez hasła || No password
5% danych naprawczych || 5% recovery data
Można pobierać na przemian || All links are interchangeable
Kategoria: BAIKI ANIMACIE | Dodał: Roberto (2013-03-03)
Wyświetleń: 162 | Rating: 0.0/0
Liczba wszystkich komentarzy: 0
Tylko zarejestrowani użytkownicy mogą dodawać komentarze.
[ Rejestracja | Wejdź ]
LUBIE TO...
Przetłumacz st...


Wyszukiwanie
Block title
Block contentGoogle+
Dodaj tu swoją ...
Block title
Block content
Block title
268 She Male Cumshot (2012/DVDRip)( Big Girls Are Sexy 2 (2013) XXX.DVD filmy lektor pl filmy lektor pl 2012 Cira - Plastikowy Kosmos (2013) Dance Vol. 36 (By Jankes2) (2013) DjM@rco Electro House Vol 1 30.Nights.Of.Paranormal.Activity.Wi DMC: Devil May Cry (2013) XBOX360-X Aeon Flux (2005) 101 Trików Sexualnych Daiquiri - Exotic Poolside House Gr Dance Chart 35 (2013) Apps Magazine UK – Issue 29 2013 Digital Camera World – March 2013 Disco Polo Party Vol. 7 (2012) Anna Karenina (2012) PL.DVDRip.XviD Co kryje miłość / Manuale d'am3re ( Apokalipsa: II wojna światowa / Apo Bitwa pod Wiedniem / September Elev David Morrell - Bractwo Nocy i Mgły David Morrell - Bractwo Kamienia (a Crysis: Warhead (2008) RELOADED / P Aż do śmierci / Until Death (2007) Battlestar Galactica: Blood and Chr Bestia / Beastly (2011) PL.DVDRip.X 13 (2010) PL.DVDRip.XViD.AC3-LILITH Billboard Hot 100 US Single Charts Deep House Class Vol 1 (2013) David Ovason - Nostradamus. Sekrety Czesław Niemen - Czas jak rzeka (20 CITIES XL PLATINIUM PL (2013) REPAC Aliens: Colonial Marines (2013) FLT Ciotka kontra mafia / Madea's Witne Chłopiec na rowerze / Le Gamin au v Dogonić życie / Racing for Time (20 7 Dziewic / 7 Virgins (2005) DVDrip 1920 Bitwa Warszawska 3D (2011) PL. CHIP 02/2013 PL + Płyta DVD9 (ISO) Darmowy Generator Turbobit Asterix i Obelix: W służbie Jej Kró Chciwość / Margin Call (2011) RETAi Bitwa.pod.Wiedniem.1683.PL.DVDRip.X Adobe Photoshop CS5 ver 12.0 PLSeri Computer Shopper - April 2013 DOA: Żywy lub martwy / DOA: Dead or Ashampoo Photo Optimizer 5.1.1 MULT Ciemna strona słońca / The Dark Sid Dead Space 3: Limited Edition (2013 Armour of God III: Chinese Zodiac ( Bóg zemsty / Seeking Justice (2011) Bojarska Teresa - Kontredans kujaws Bram Stoker - Dracula Audiobook PL Dowód ostateczny / The Lady in Blue Diabeł Tasmański / Tasmanian Devils 12 godzin / Stolen (2012) PL.PAL.DV PL 2012 Cafe Futbol lektorpl .2012 film lektor pl Delikatność / La Delicatesse (2011) dla download (2010) Lektor PL PL.DVDRip.XviD / Lektor PL PL.DVDRip.XviD (2011) Lektor PL (2012) PL.DVDRip.Xvid (2005) DVDRIP LEKTOR PL (2011) / Lektor PL 2005 PL.STVRip.XviD.AVI (2011) PL.BRRip.XviD / Lektor PL (2013) PL lektor pl (2011) PL.DVDRip.XviD Polska wersja językowa Angielska-Napisy PL (Wtopione) PL.BRRip.XviD (2008) DVDRIP LEKTOR PL DOWNLOAD 1 LiNKS NO COMPRESSION NO (2011) PL.BRRip.XviD-BiDA / Lektor Profesjonalny Lektor PL (2012) PL.DVDRip.XviD / Lektor PL (2008) PL.DVDRip.Xvid (2010) PL.DVDRip.XviD / Lektor PL gry pc Polska wersja jezykowa .iso 2009 Call of Duty Modern Warfa ace assault combat horizon avonturen Download Diaries dee detektyw (1991)VHSRip.XviD / Lektor PL cauchemar ucoz Curve Dopópiłgrze zajefajnie Dory

klikńyi w baner
i pobierai Gry | Filmy | Muzyka | Programy | XXX | ebooki ...Codziennie najnowszy upload !.Wszystko Za Free Na tej stronie nie zostały umieszczone żadne pliki, a jedynie informacje na ich temat (opis, długosć, kodek, typ, rodzaj kompresji, suma kontrolna itp.). Pamiętaj, że pliki objęte prawem autorskim wolno zgrywać z sieci jedynie, jeżeli posiada się w domu ich pełną wersję, a pobrane kopię będzie się traktować jako zapasowe.